Hombres, mujeres & niños (2014) [BR-SCREENER XviD] [MiC Dubb

Todo tipo de videos en diferentes formatos e idioma. Prohibido publicar pornografía.
  • Autor
    Mensaje

Hombres, mujeres & niños (2014) [BR-SCREENER XviD] [MiC Dubb

Mensaje sin leerpor mauricio » 15 Ene 2015 21:41

[center]Imagen

Imagen

Narra la historia de un grupo de adolescentes estudiantes de instituto y sus padres que intentan asimilar las muchas maneras en que Internet ha cambiado sus relaciones, sus comunicaciones, la imagen de sí mismos y sus vidas amorosas. La película pretende analizar conflictos sociales tales como la cultura de los videojuegos, la anorexia, la infidelidad, la búsqueda de la fama y la proliferación de materiales ilícitos en Internet. A medida que se va poniendo a prueba a cada personaje y cada relación, se muestra la diversidad de caminos que escoge la gente (algunos trágicos, otros llenos de esperanza), mientras va quedando claro que nadie es inmune a este enorme cambio social que nos llega a través de nuestros teléfonos, nuestras tablets y nuestros ordenadores.

Imagen

Título: Hombres, mujeres & niños
Título original: Men, Women & Children
País: USA
Estreno en USA: 01/10/2014
Estreno en España: 12/12/2014
Productora: Indian Paintbrush, Right of Way Films
Director: Jason Reitman
Guión: Jason Reitman, Erin Cressida Wilson
Reparto: Timothée Chalamet, Olivia Crocicchia, Kaitlyn Dever, Ansel Elgort, Katherine Hughes, Elena Kampouris, Travis Tope, Rosemarie Dewitt, Jennifer Garner, Judy Greer, Dean Norris, Adam Sandler, Emma Thompson, David Denman, Jason Douglas, Dennis Haysbert, Shane Lynch, Will Peltz, J.K. Simmons
Calificación: No recomendada para menores de 16 años
Género: Drama | Adolescencia. Familia. Historias cruzadas. Internet / Informática

Calidad de Video: HDRip XviD 720x400
Calidad de Audio: Castellano MiC DubbeD HQ 256kbps
Subtitulos: Forzados Español Pegados para conversaciones SMS y Carteles.
Tamaño: 1.90 GB

Mediainfo

Código: Seleccionar todo
Format                                   : AVI
Format/Info                              : Audio Video Interleave
File size                                : 1.89 GiB
Duration                                 : 1h 59mn
Overall bit rate                         : 2 270 Kbps
Writing application                      : VirtualDubMod 1.5.10.2 (build 2542/release)
Writing library                          : VirtualDubMod build 2542/release

Video
ID                                       : 0
Format                                   : MPEG-4 Visual
Format profile                           : Advanced Simple@L5
Format settings, BVOP                    : 2
Format settings, QPel                    : No
Format settings, GMC                     : No warppoints
Format settings, Matrix                  : Default (H.263)
Muxing mode                              : Packed bitstream
Codec ID                                 : XVID
Codec ID/Hint                            : XviD
Duration                                 : 1h 59mn
Bit rate                                 : 2 005 Kbps
Width                                    : 720 pixels
Height                                   : 400 pixels
Display aspect ratio                     : 16:9
Frame rate                               : 23.976 fps
Color space                              : YUV
Chroma subsampling                       : 4:2:0
Bit depth                                : 8 bits
Scan type                                : Progressive
Compression mode                         : Lossy
Bits/(Pixel*Frame)                       : 0.290
Stream size                              : 1.67 GiB (88%)
Writing library                          : XviD 65

Audio
ID                                       : 1
Format                                   : MPEG Audio
Format version                           : Version 1
Format profile                           : Layer 3
Codec ID                                 : 55
Codec ID/Hint                            : MP3
Duration                                 : 1h 59mn
Bit rate mode                            : Constant
Bit rate                                 : 256 Kbps
Channel(s)                               : 2 channels
Sampling rate                            : 44.1 KHz
Compression mode                         : Lossy
Stream size                              : 219 MiB (11%)
Alignment                                : Split accross interleaves
Interleave, duration                     : 42 ms (1.00 video frame)
Interleave, preload duration             : 500 ms


Imagen

Imagen
Imagen
Imagen

Imagen

1 Link y links Intercambiables
ImagenImagen

Debes estar registrado para ver este enlace. Solicita tu acceso VIP a Enigmaelectronica
[/center]
mauricio
 

Re: Hombres, mujeres & niños (2014) [BR-SCREENER XviD] [MiC

Mensaje sin leerpor Enigma » 25 Jun 2017 17:46

Las imágenoes no se ven :(
Enigma
Administrador del Sitio
Administrador del Sitio

Avatar de Usuario
 
Mensajes: 714
Registrado: 20 Oct 2013 16:26
Es: Mujer
Profesion: Webmaster CEO SEO
Ubicacion: Matrix
Navegador: Chrome

Volver a Videos - Películas - Documentales

¿Quién está conectado?

Usuarios navegando por este Foro: No hay usuarios registrados visitando el Foro y 2 invitados